ACG资源|动漫种子|动漫BT下载 - ACG搜

动漫ACG | 动画下载 | 漫画下载 | galgame下载 | 资源搜索 | 发布资源 | 加入收藏

首页 » 动画 » 新番连载 » [Fate/stay night Movie:Heaven's Feel - I. Presage Flower][BDRip 1920x1080 X265 10bit OPUS 5.1]

基本信息

共享用户: ACG搜

发布时间: 2018/05/10 10:05:39

更新时间: 无更新

分享情况: 做种 , 下载 , 完成

健 康 度: 0

点击此处下载种子

使用磁力链下载

Tracker信息

Announce:

http://tracker.acgsou.com:2710/announce

Scrape:

http://tracker.acgsou.com:2710/scrape

Announce list:
  • http://www.acgsou.com:2710/announce
  • http://tracker.acgsou.com:2710/announce

资源介绍

 使用x265从原版bd直接压制,由于改作品大动态画面不是太多,所以视频体积可以压制的比较小,音频采用目前最好的OPUS格式(比AAC优秀很多),保留完整的5.1声道,相比原始音轨的基本没什么可感知的差异。

此外,文件中单独提供了原始的DTSMA音轨,提供给有完美主义嗜好的用户自行合并使用。

字幕目前可采用:https://share.dmhy.org/topics/view/489626_fate_stay_night_heaven_s_feel.html

 

 


 

Format                      : Matroska

Format version              : Version 4 / Version 2

File size                   : 2.65 GiB

Duration                    : 2 h 0 min

Overall bit rate            : 3 150 kb/s

Encoded date                : UTC 2018-05-10 01:01:53

Writing application         : mkvmerge v20.0.0 ('I Am The Sun') 64-bit

Writing library             : libebml v1.3.5 + libmatroska v1.4.8

Writing frontend            : StaxRip v1.7.0.6


Video

ID                          : 1

Format                      : HEVC

Format/Info                 : High Efficiency Video Coding

Format profile              : Main [email protected]@Main

Codec ID                    : V_MPEGH/ISO/HEVC

Duration                    : 2 h 0 min

Bit rate                    : 2 634 kb/s

Width                       : 1 920 pixels

Height                      : 1 080 pixels

Display aspect ratio        : 16:9

Frame rate mode             : Constant

Frame rate                  : 23.976 (24000/1001) FPS

Color space                 : YUV

Chroma subsampling          : 4:2:0

Bit depth                   : 10 bits

Bits/(Pixel*Frame)          : 0.053

Stream size                 : 2.22 GiB (84%)

Writing library             : x265 2.7+348-0968a46d6ba4:[Windows][MSVC 1914][64 bit] 10bit

Encoding settings           : cpuid=1111039 / frame-threads=2 / numa-pools=4 / wpp / no-pmode / no-pme / no-psnr / no-ssim / log-level=2 / input-csp=1 / input-res=1920x1080 / interlace=0 / total-frames=173477 / level-idc=0 / high-tier=1 / uhd-bd=0 / ref=4 / no-allow-non-conformance / no-repeat-headers / annexb / no-aud / no-hrd / info / hash=0 / no-temporal-layers / open-gop / min-keyint=23 / keyint=250 / gop-lookahead=0 / bframes=4 / b-adapt=2 / b-pyramid / bframe-bias=0 / rc-lookahead=25 / lookahead-slices=4 / scenecut=40 / radl=0 / no-intra-refresh / ctu=64 / min-cu-size=8 / rect / no-amp / max-tu-size=32 / tu-inter-depth=1 / tu-intra-depth=1 / limit-tu=0 / rdoq-level=2 / dynamic-rd=0.00 / no-ssim-rd / signhide / no-tskip / nr-intra=0 / nr-inter=0 / no-constrained-intra / no-strong-intra-smoothing / max-merge=3 / limit-refs=3 / limit-modes / me=3 / subme=3 / merange=57 / temporal-mvp / weightp / no-weightb / no-analyze-src-pics / deblock=-1:-1 / no-sao / no-sao-non-deblock / rd=4 / no-early-skip / rskip / no-fast-intra / no-tskip-fast / no-cu-lossless / no-b-intra / no-splitrd-skip / rdpenalty=0 / psy-rd=2.00 / psy-rdoq=1.50 / no-rd-refine / no-lossless / cbqpoffs=0 / crqpoffs=0 / rc=crf / crf=18.0 / qcomp=0.60 / qpstep=4 / stats-write=0 / stats-read=0 / ipratio=1.40 / pbratio=1.30 / aq-mode=1 / aq-strength=1.00 / cutree / zone-count=0 / no-strict-cbr / qg-size=32 / no-rc-grain / qpmax=69 / qpmin=0 / no-const-vbv / sar=0 / overscan=0 / videoformat=5 / range=0 / colorprim=2 / transfer=2 / colormatrix=2 / chromaloc=0 / display-window=0 / max-cll=0,0 / min-luma=0 / max-luma=1023 / log2-max-poc-lsb=8 / vui-timing-info / vui-hrd-info / slices=1 / no-opt-qp-pps / no-opt-ref-list-length-pps / no-multi-pass-opt-rps / scenecut-bias=0.05 / no-opt-cu-delta-qp / no-aq-motion / no-hdr / no-hdr-opt / no-dhdr10-opt / no-idr-recovery-sei / analysis-reuse-level=5 / scale-factor=0 / refine-intra=0 / refine-inter=0 / refine-mv=0 / no-limit-sao / ctu-info=0 / no-lowpass-dct / refine-mv-type=0 / copy-pic=1 / max-ausize-factor=1.0 / no-dynamic-refine / no-single-sei

Default                     : Yes

Forced                      : No


Audio

ID                          : 2

Format                      : Opus

Codec ID                    : A_OPUS

Duration                    : 2 h 0 min

Bit rate                    : 512 kb/s

Channel(s)                  : 6 channels

Channel positions           : Front: L C R, Rear: L R, LFE

Sampling rate               : 48.0 kHz

Frame rate                  : 50.000 FPS (960 SPF)

Compression mode            : Lossy

Stream size                 : 443 MiB (16%)

Language                    : Japanese

Default                     : No

Forced                      : No


Menu

00:00:00.000                : en:Chapter 1

00:04:19.884                : en:Chapter 2

00:09:07.838                : en:Chapter 3

00:12:32.126                : en:Chapter 4

00:19:47.394                : en:Chapter 5

00:26:44.102                : en:Chapter 6

00:29:58.004                : en:Chapter 7

00:34:50.922                : en:Chapter 8

00:40:10.991                : en:Chapter 9

00:47:07.574                : en:Chapter 10

00:52:19.177                : en:Chapter 11

00:59:06.543                : en:Chapter 12

01:07:36.886                : en:Chapter 13

01:15:41.119                : en:Chapter 14

01:20:32.202                : en:Chapter 15

01:24:49.417                : en:Chapter 16

01:30:56.742                : en:Chapter 17

01:38:43.417                : en:Chapter 18

01:44:11.370                : en:Chapter 19

01:51:28.473                : en:Chapter 20

01:53:39.312                : en:Chapter 21

01:59:21.154                : en:Chapter 22

 

 

 


文件信息 文件总数:2,文件总大小:5.3GB

 
  • Folder Fate/stay night Movie:Heaven's Feel - I. Presage Flower
    • Unknown [wybb][Fate/stay night Movie:Heaven's Feel - I. Presage Flower][BDRip 1920x1080 X265 10bit OPUS 5.1].dtsma(2.7GB)
    • 视频文件 [wybb][Fate/stay night Movie:Heaven's Feel - I. Presage Flower][BDRip 1920x1080 X265 10bit OPUS 5.1].mkv(2.7GB)
 

下载地址 磁力链接可以使用迅雷等主流软件进行下载

 
 

网友评论(0)

正在加载评论,请稍候......
发表我的看法(评论内容长度最多允许 1000 字)
评论内容
验证码