ACG资源|动漫种子|动漫BT下载 - ACG搜

动漫ACG | 动画下载 | 漫画下载 | galgame下载 | 资源搜索 | 发布资源 | 加入收藏



首页 » RAW片源 » [Mabors-Raws] Fate/stay night Heaven's Feel I.presage flower /命运/停驻之夜 天之杯 1.预示之花(BDrip 1920x1080 HEVC-YUV420P10 DTS-HDMA GB&BIG5&JP&EN)[内封字幕][rev]

基本信息

共享用户: ACG搜

发布时间: 2018/05/14 22:30:19

更新时间: 无更新

分享情况: 做种 , 下载 , 完成

健 康 度: 0

点击此处下载种子

使用磁力链下载




Tracker信息

Announce:

http://tracker.acgsou.com:2710/announce

Scrape:

http://tracker.acgsou.com:2710/scrape

Announce list:
  • http://www.acgsou.com:2710/announce
  • http://tracker.acgsou.com:2710/announce

资源介绍

 因为我的失误文件名出现错误故rev文件没变动纯文件名更改

image

★イントロダクション

それは、手にした者の願いを叶えるという万能の願望機──「聖杯」をめぐる物語。
ヴィジュアルノベルゲーム『Fate/stay night』第三のルート[Heaven's Feel](通称・桜ルート)が、ついに劇場版映画化された。
これは主人公の衛宮士郎を慕う間桐桜を通して、聖杯戦争の真実に迫るストーリー。2017年10月に劇場公開された本作は、動員96万人以上、興行収入14億円突破を達成している(2018年1月時点)。
アニメーション制作は2014年にTVアニメ版[Unlimited Blade Works]を手掛けたufotable。
監督はキャラクターデザイン・作画監督として数々のTYPE-MOON作品のアニメ化を手掛けてきた須藤友徳が担当する。

全三章で贈る[Heaven's Feel]の開幕――[I.presage flower]がいよいよ萌芽する。

★ストーリー

「もしわたしが悪い人になったら許せませんか?」

少年は少女を守りたい。そう、思った。
魔術師〈マスター〉と英霊〈サーヴァント〉が、あらゆる願いをかなえる願望機「聖杯」をめぐり戦う――「聖杯戦争」が起きて10年、冬木市で再び戦争が始まった。
前回の「聖杯戦争」の参加者である衛宮切嗣の養子・衛宮士郎は遺志を継ぎ、戦うことを決意する。
士郎のそばには、彼を慕う少女――間桐桜がいた。彼女は毎朝、毎晩士郎の家に通うと朝食と夕食を作り、天涯孤独だった士郎と優しい日々を過ごしていた。
だが「聖杯戦争」が始まると、冬木の町に流れる空気が変わった。あちこちで殺人事件が起き、不穏な空気が流れ始める。士郎は桜を自宅に泊めることを決意した。
士郎は召喚したサーヴァント・セイバーとともに、魔術師の遠坂凛と同盟を結び「聖杯戦争」に臨む。
だが、その戦いは暗躍する者たちによって大きくきしみ、歪み始めていた。 

★本編ディスク仕様
・字幕:日本語/英語収録
・音声:2ch/5.1ch

★特典映像
・PV・CM集


【完全生産限定版特典】
◆武内崇描き下ろしBOX
◆須藤友徳描き下ろしデジジャケット
◆オリジナルサウンドトラック
◆特典ディスク
◆スペシャルブックレット
◆イラストブック

【特典ディスク内容】
◆公開直前特番「原点の物語、劇場へ─」
◆初日プレミアイベント付舞台挨拶(編集版)
◆特別興行“間桐家舞台挨拶"(編集版)
◆下屋則子インタビュー(「Fate Project 大晦日TVスペシャル2017」ロングバージョン)

※特典ディスクはDVDになります。
※初日プレミアイベント付舞台挨拶(編集版)には、LIVEパートは収録されません。
※商品の特典および仕様は予告なく変更になる場合がございます。


★キャスト
・衛宮士郎 : 杉山紀彰
・間桐 桜 : 下屋則子
・間桐慎二 : 神谷浩史
・セイバー : 川澄綾子
・遠坂 凛 : 植田佳奈
・藤村大河 : 伊藤美紀
・言峰綺礼 : 中田譲治
・間桐臓硯 : 津嘉山正種
・美綴綾子 : 水沢史絵
・柳洞一成 : 真殿光昭
・衛宮切嗣 : 小山力也
・ランサー : 神奈延年
・ギルガメッシュ : 関智一
・ライダー : 浅川悠
・アサシン : 三木眞一郎
・キャスター : 田中敦子
・アーチャー : 諏訪部順一
・葛木宗一郎 : てらそままさき
・イリヤスフィール・フォン・アインツベルン : 門脇舞以
・セラ : 七緒はるひ
・リーゼリット : 宮川美保 
・真アサシン : 稲田徹


★スタッフ
・原作 : 奈須きのこ/TYPE-MOON
・キャラクター原案 : 武内崇
・監督 : 須藤友徳
・キャラクターデザイン : 須藤友徳、碇谷敦、田畑壽之
・脚本 : 桧山彬(ufotable)
・美術監督 : 衛藤功二
・撮影監督 : 寺尾優一
・3D監督 : 西脇一樹
・色彩設計 : 松岡美佳
・編集 : 神野学
・音楽 : 梶浦由記
・制作プロデューサー : 近藤光
・アニメーション制作 : ufotable


★主題歌
Aimer 『花の唄』


≪Copy Right≫
(C)TYPE-MOON・ufotable・FSNPC 
(C)TYPE-MOON
引用
感谢UE放流和字幕组中大佬买蝶,感谢字幕组的爆肝翻译我搞错脚本导致重跑3次才完成压制,感谢贾总的帮助。内封ASS字幕采用V3版本

引用
概要
Unique ID                                : 127093026174627370248822401027990142694 (0x5F9D39FACE6A3F6CAE71202A1F64BEE6)
Complete name                            : X:\[Mabors-Raws] Fate stay night [Heaven's Feel] I.presage flower (BDrip 1920x1080 HEVC-YUV420P10 DTSMA GB&BIG5&JP&EN)\[Mabors-Raws] Fate stay night [Heaven's Feel] I.presage flower [Moive](BDrip 1920x1080 HEVC-YUV420P10 DTS-HDMA x2 GB&BIG5&JP&EN).mkv
Format                                   : Matroska
Format version                           : Version 4 / Version 2
File size                                : 6.94 GiB
Duration                                 : 2 小时 0 分
Overall bit rate                         : 8 240 kb/s
Encoded date                             : UTC 2018-05-14 03:02:20
Writing application                      : mkvmerge v23.0.0 ('The Bride Said No') 64-bit
Writing library                          : libebml v1.3.6 + libmatroska v1.4.9
Attachments                              : 2.TTF / msyhbd.ttc / SoukouMincho.ttf / 方正粗雅宋_GBK.TTF

视频
ID                                       : 1
Format                                   : HEVC
Format/Info                              : High Efficiency Video Coding
Format profile                           : Main [email protected]@Main
Codec ID                                 : V_MPEGH/ISO/HEVC
Duration                                 : 2 小时 0 分
Bit rate                                 : 3 601 kb/s
Width                                    : 1 920 像素
Height                                   : 1 080 像素
Display aspect ratio                     : 16:9
Frame rate mode                          : 恒定
Frame rate                               : 23.976 (24000/1001) 帧/秒
Color space                              : YUV
Chroma subsampling                       : 4:2:0
Bit depth                                : 10 位
Bits/(Pixel*Frame)                       : 0.072
Stream size                              : 3.03 GiB (44%)
Writing library                          : x265 2.7gfae7bfd3d+17:[Windows][GCC 7.1.0][64 bit] Yuuki 10bit
Encoding settings                        : rc=crf / crf=17.0000 / qcomp=0.70 / qpstep=4 / aq-mode=1 / aq-strength=1.00 / cbqpoffs=0 / crqpoffs=0 / ipratio=1.40 / pbratio=1.30 / psy-rd=4.00 / psy-rdoq=6.00 / deblock=-1:-1 / ref=5 / bframes=8 / b-adapt=2 / bframe-bias=0 / b-pyramid / b-intra / weightp / weightb / min-keyint=1 / max-keyint=150 / rc-lookahead=70 / gop-lookahead=0 / scenecut=40 / radl=0 / max-cu-size=32 / min-cu-size=8 / me=2 / subme=7 / merange=48 / rdoq-level=1 / rd=5 / rdpenalty=1 / ----- / cutree / no-sao / rect / no-amp / no-open-gop / wpp / no-pmode / no-pme / no-psnr / no-ssim / nr-intra=0 / nr-inter=0 / no-constrained-intra / strong-intra-smoothing / max-tu-size=32 / tu-inter-depth=3 / tu-intra-depth=3 / limit-tu=4 / qg-size=32 / qpmax=69 / qpmin=0 / ----- / cpuid=1050111 / frame-threads=5 / numa-pools=16,16 / log-level=2 / input-csp=1 / input-res=1920x1080 / interlace=0 / level-idc=0 / high-tier=1 / uhd-bd=0 / no-allow-non-conformance / no-repeat-headers / no-aud / no-hrd / info / hash=0 / no-temporal-layers / lookahead-slices=0 / no-intra-refresh / dynamic-rd=0.00 / no-ssim-rd / signhide / no-tskip / max-merge=4 / limit-refs=1 / limit-modes / temporal-mvp / no-analyze-src-pics / no-sao-non-deblock / no-early-skip / rskip / no-fast-intra / no-tskip-fast / no-cu-lossless / no-splitrd-skip / no-rd-refine / no-lossless / zone-count=0 / no-strict-cbr / no-rc-grain / no-const-vbv / sar=0 / overscan=0 / videoformat=5 / range=0 / colorprim=2 / transfer=2 / colormatrix=1 / chromaloc=0 / display-window=0 / max-cll=0,0 / min-luma=0 / max-luma=1023 / log2-max-poc-lsb=8 / vui-timing-info / vui-hrd-info / slices=1 / no-opt-qp-pps / no-opt-ref-list-length-pps / no-multi-pass-opt-rps / scenecut-bias=0.05 / no-opt-cu-delta-qp / no-aq-motion / no-hdr / no-hdr-opt / no-dhdr10-opt / analysis-reuse-level=5 / scale-factor=0 / refine-intra=0 / refine-inter=0 / refine-mv=0 / no-limit-sao / ctu-info=0 / no-lowpass-dct / refine-mv-type=0 / copy-pic=1
Language                                 : 日语 (Japanese)
Default                                  : 是
Forced                                   : 否
Color range                              : Limited
Matrix coefficients                      : BT.709

音频 #1
ID                                       : 2
Format                                   : DTS
Format/Info                              : Digital Theater Systems
Format profile                           : MA / Core
Codec ID                                 : A_DTS
Duration                                 : 2 小时 0 分
Bit rate mode                            : 动态(VBR) / 恒定(CBR)
Bit rate                                 : 1 280 kb/s / 768 kb/s
Channel(s)                               : 2 声道
Channel positions                        : Front: L R
Sampling rate                            : 48.0 kHz
Frame rate                               : 93.750 帧/秒 (512 SPF)
Bit depth                                : 24 位
Compression mode                         : 无损 / Lossy
Stream size                              : 1.09 GiB (16%)
Title                                    : 立体声
Language                                 : 日语 (Japanese)
Default                                  : 是
Forced                                   : 否

音频 #2
ID                                       : 3
Format                                   : DTS
Format/Info                              : Digital Theater Systems
Format profile                           : MA / Core
Codec ID                                 : A_DTS
Duration                                 : 2 小时 0 分
Bit rate mode                            : 动态(VBR) / 恒定(CBR)
Bit rate                                 : 3 173 kb/s / 1 509 kb/s
Channel(s)                               : 6 声道
Channel positions                        : Front: L C R, Side: L R, LFE
Sampling rate                            : 48.0 kHz
Frame rate                               : 93.750 帧/秒 (512 SPF)
Bit depth                                : 24 位
Compression mode                         : 无损 / Lossy
Stream size                              : 2.67 GiB (39%)
Title                                    : 5.1声道
Language                                 : 日语 (Japanese)
Default                                  : 否
Forced                                   : 否

文本 #1
ID                                       : 4
Format                                   : PGS
Muxing mode                              : zlib
Codec ID                                 : S_HDMV/PGS
Codec ID/Info                            : Picture based subtitle format used on BDs/HD-DVDs
Duration                                 : 2 小时 0 分
Bit rate                                 : 138 kb/s
Count of elements                        : 6017
Stream size                              : 118 MiB (2%)
Title                                    : 日文字幕
Language                                 : 日语 (Japanese)
Default                                  : 否
Forced                                   : 否

文本 #2
ID                                       : 5
Format                                   : PGS
Muxing mode                              : zlib
Codec ID                                 : S_HDMV/PGS
Codec ID/Info                            : Picture based subtitle format used on BDs/HD-DVDs
Duration                                 : 1 小时 59 分
Bit rate                                 : 171 kb/s
Count of elements                        : 8502
Stream size                              : 146 MiB (2%)
Title                                    : 英语字幕
Language                                 : 英语 (English)
Default                                  : 否
Forced                                   : 否

文本 #3
ID                                       : 6
Format                                   : ASS
Codec ID                                 : S_TEXT/ASS
Codec ID/Info                            : Advanced Sub Station Alpha
Duration                                 : 2 小时 0 分
Bit rate                                 : 66 b/s
Count of elements                        : 1213
Compression mode                         : 无损
Stream size                              : 58.3 KiB (0%)
Title                                    : 简体中文
Language                                 : 中文 (Chinese)
Default                                  : 是
Forced                                   : 否

文本 #4
ID                                       : 7
Format                                   : ASS
Codec ID                                 : S_TEXT/ASS
Codec ID/Info                            : Advanced Sub Station Alpha
Duration                                 : 2 小时 0 分
Bit rate                                 : 66 b/s
Count of elements                        : 1213
Compression mode                         : 无损
Stream size                              : 58.3 KiB (0%)
Title                                    : 繁体中文
Language                                 : 中文 (Chinese)
Default                                  : 否
Forced                                   : 否

菜单
00:00:00.000                             : en:1
00:04:19.885                             : en:2
00:09:07.839                             : en:3
00:12:32.126                             : en:4
00:19:47.395                             : en:5
00:26:44.102                             : en:6
00:29:58.005                             : en:7
00:34:50.922                             : en:8
00:40:10.992                             : en:9
00:47:07.575                             : en:10
00:52:19.178                             : en:11
00:59:06.543                             : en:12
01:07:36.886                             : en:13
01:15:41.120                             : en:14
01:20:32.202                             : en:15
01:24:49.418                             : en:16
01:30:56.743                             : en:17
01:38:43.417                             : en:18
01:44:11.370                             : en:19
01:51:28.473                             : en:20
01:53:39.312                             : en:21
01:59:21.154                             : en:22







文件信息 文件总数:38,文件总大小:9.6GB

 
  • Folder [Mabors-Raws] Fate stay night [Heaven's Feel] I.presage flower (BDrip 1920x1080 HEVC-YUV420P10 DTSMA GB&BIG5&JP&EN)
    • Folder CDs
      • Folder [171011] 花の唄 ONE 六等星の夜 Magic Blue ver(期間生產限定盤) [SECL-2212](WAV+CUE+LOG+BK)
        • Folder BK
          • 图片文件 img001.tif(7.1MB)
          • 图片文件 img002.tif(9.3MB)
          • 图片文件 img003.tif(10.4MB)
          • 图片文件 img004.tif(13.5MB)
          • 图片文件 img005.tif(15.5MB)
          • 图片文件 img006.tif(16.7MB)
          • 图片文件 img007.tif(5.2MB)
          • 图片文件 img008.tif(4.6MB)
          • 图片文件 img009.tif(22.6MB)
        • 光盘镜(映)像文件 SECL-2212.cue(825Bytes)
        • 文本文件 SECL-2212.log(4.7KB)
        • 音频文件 SECL-2212.wav(272.9MB)
      • Folder [180509] 「SPCD OST/梶浦由記」[ANZX-14403] (FLAC+CUE+LOG+BK)
        • 光盘镜(映)像文件 ANZX-14403.cue(3.3KB)
        • 音频文件 ANZX-14403.flac(278MB)
        • 图片文件 ANZX-14403.jpg(425.8KB)
        • 文本文件 ANZX-14403.log(7.6KB)
        • 图片文件 BK.png(36.1MB)
    • Folder DVD
      • 视频文件 [Mabors-Raws] Fate stay night [Heaven's Feel] I.presage flower [IV01](DVDrip 720x480 HEVC-YUV420P10 AC3).mkv(155MB)
      • 视频文件 [Mabors-Raws] Fate stay night [Heaven's Feel] I.presage flower [IV02](DVDrip 720x480 HEVC-YUV420P10 AC3).mkv(515.7MB)
      • 视频文件 [Mabors-Raws] Fate stay night [Heaven's Feel] I.presage flower [IV03](DVDrip 720x480 HEVC-YUV420P10 AC3).mkv(476.8MB)
      • 视频文件 [Mabors-Raws] Fate stay night [Heaven's Feel] I.presage flower [IV04](DVDrip 720x480 HEVC-YUV420P10 AC3).mkv(316.5MB)
      • 视频文件 [Mabors-Raws] Fate stay night [Heaven's Feel] I.presage flower [Menu](DVDrip 720x480 HEVC-YUV420P10 AC3).mkv(4.7MB)
    • Folder Menus
      • 图片文件 1_1_normal_start.png(255.3KB)
      • 图片文件 1_2_normal_start.png(355KB)
      • 图片文件 1_3_normal_start.png(411.9KB)
      • 图片文件 1_4_normal_start.png(413.8KB)
    • 视频文件 [Mabors-Raws] Fate stay night [Heaven's Feel] I.presage flower [CM第一弹](BDrip 1920x1080 HEVC-YUV420P10 DTS-HDMA).mkv(25.5MB)
    • 视频文件 [Mabors-Raws] Fate stay night [Heaven's Feel] I.presage flower [CM第三弹](BDrip 1920x1080 HEVC-YUV420P10 DTS-HDMA).mkv(44.7MB)
    • 视频文件 [Mabors-Raws] Fate stay night [Heaven's Feel] I.presage flower [CM第二弹](BDrip 1920x1080 HEVC-YUV420P10 DTS-HDMA).mkv(18.2MB)
    • 视频文件 [Mabors-Raws] Fate stay night [Heaven's Feel] I.presage flower [Menu](BDrip 1920x1080 HEVC-YUV420P10 DTS-HDMA x2).mkv(84.9MB)
    • 视频文件 [Mabors-Raws] Fate stay night [Heaven's Feel] I.presage flower [Movie](BDrip 1920x1080 HEVC-YUV420P10 DTS-HDMA x2 GB&BIG5&JP&EN).mkv(6.9GB)
    • 视频文件 [Mabors-Raws] Fate stay night [Heaven's Feel] I.presage flower [PV](BDrip 1920x1080 HEVC-YUV420P10 DTS-HDMA).mkv(29MB)
    • 视频文件 [Mabors-Raws] Fate stay night [Heaven's Feel] I.presage flower [Start](BDrip 1920x1080 HEVC-YUV420P10 DTS-HDMA).mkv(9.7MB)
    • 视频文件 [Mabors-Raws] Fate stay night [Heaven's Feel] I.presage flower [ティザーPV](BDrip 1920x1080 HEVC-YUV420P10 DTS-HDMA).mkv(75.4MB)
    • 视频文件 [Mabors-Raws] Fate stay night [Heaven's Feel] I.presage flower [予告編第一弹](BDrip 1920x1080 HEVC-YUV420P10 DTS-HDMA).mkv(32.7MB)
    • 视频文件 [Mabors-Raws] Fate stay night [Heaven's Feel] I.presage flower [予告編第二弹](BDrip 1920x1080 HEVC-YUV420P10 DTS-HDMA).mkv(88.9MB)
    • 视频文件 [Mabors-Raws] Fate stay night [Heaven's Feel] I.presage flower [本予告](BDrip 1920x1080 HEVC-YUV420P10 DTS-HDMA).mkv(96.6MB)
    • 压缩文件 fonts.zip(28.7MB)
 

下载地址 磁力链接可以使用迅雷等主流软件进行下载

 
 

网友评论(0)

正在加载评论,请稍候......
发表我的看法(评论内容长度最多允许 1000 字)
评论内容
验证码