ACG资源|动漫种子|动漫BT下载 - ACG搜

动漫ACG | 动画下载 | 漫画下载 | galgame下载 | 资源搜索 | 发布资源 | 加入收藏



首页 » 动画 » 新番连载 » [DDD] Fate/Apocrypha [BDrip 720p HEVC AAC][10bits]

基本信息

共享用户: ACG搜

发布时间: 2018/09/04 21:38:33

更新时间: 无更新

分享情况: 做种 , 下载 , 完成

健 康 度: 0

点击此处下载种子

使用磁力链下载




Tracker信息

Announce:

http://tracker.acgsou.com:2710/announce

Scrape:

http://tracker.acgsou.com:2710/scrape

Announce list:
  • http://www.acgsou.com:2710/announce
  • http://tracker.acgsou.com:2710/announce

资源介绍

汤浅风的灵魂崩坏战斗作画还在那里啊,还在那里啊!画师的灵魂早已不可逆物质化了啊!

字幕包:因为来源不明,对比了貌似是二的召唤制作,致谢。(修正错字数处,修正第二话OP后数行对话)

General Complete name : D:\[DDD] Fate/Apocrypha [BDrip 720p HEVC AAC][10bits]\Fate/Apocrypha 第01話 「外典:聖杯大戦」.mp4 Format : MPEG-4 Format profile : Base Media Codec ID : isom (isom) File size : 210 MiB Duration : 23 min 47 s Overall bit rate mode : Variable Overall bit rate : 1 234 kb/s Encoded date : UTC 2018-08-31 16:04:54 Tagged date : UTC 2018-08-31 16:04:54 Video ID : 1 Format : HEVC Format/Info : High Efficiency Video Coding Format profile : Main [email protected]@Main Codec ID : hev1 Codec ID/Info : High Efficiency Video Coding Duration : 23 min 47 s Bit rate : 1 058 kb/s Maximum bit rate : 10.2 Mb/s Width : 1 280 pixels Height : 720 pixels Display aspect ratio : 16:9 Frame rate mode : Variable Frame rate : 23.976 (24000/1001) FPS Minimum frame rate : 23.564 FPS Maximum frame rate : 24.390 FPS Color space : YUV Chroma subsampling : 4:2:0 Bit depth : 10 bits Bits/(Pixel*Frame) : 0.048 Stream size : 180 MiB (86%) Writing library : x265 2.72aa737a99f51:[Windows][GCC 7.3.0][64 bit] 10bit Encoding settings : cpuid=1173503 / frame-threads=3 / numa-pools=8 / wpp / no-pmode / no-pme / no-psnr / no-ssim / log-level=2 / input-csp=1 / input-res=1280x720 / interlace=0 / total-frames=34215 / level-idc=0 / high-tier=1 / uhd-bd=0 / ref=6 / no-allow-non-conformance / no-repeat-headers / annexb / no-aud / no-hrd / info / hash=0 / no-temporal-layers / no-open-gop / min-keyint=1 / keyint=360 / gop-lookahead=0 / bframes=6 / b-adapt=2 / b-pyramid / bframe-bias=0 / rc-lookahead=40 / lookahead-slices=4 / scenecut=40 / radl=0 / no-intra-refresh / ctu=32 / min-cu-size=8 / no-rect / no-amp / max-tu-size=32 / tu-inter-depth=2 / tu-intra-depth=2 / limit-tu=0 / rdoq-level=1 / dynamic-rd=0.00 / no-ssim-rd / signhide / no-tskip / nr-intra=0 / nr-inter=0 / no-constrained-intra / no-strong-intra-smoothing / max-merge=2 / limit-refs=3 / no-limit-modes / me=1 / subme=2 / merange=44 / temporal-mvp / weightp / no-weightb / no-analyze-src-pics / deblock=0:0 / sao / no-sao-non-deblock / rd=3 / no-early-skip / rskip / no-fast-intra / no-tskip-fast / no-cu-lossless / no-b-intra / no-splitrd-skip / rdpenalty=0 / psy-rd=1.00 / psy-rdoq=3.00 / no-rd-refine / no-lossless / cbqpoffs=0 / crqpoffs=0 / rc=crf / crf=18.0 / qcomp=0.60 / qpstep=4 / stats-write=0 / stats-read=0 / ipratio=1.40 / pbratio=1.30 / aq-mode=1 / aq-strength=1.00 / cutree / zone-count=0 / no-strict-cbr / qg-size=16 / no-rc-grain / qpmax=69 / qpmin=0 / no-const-vbv / sar=1 / overscan=0 / videoformat=5 / range=0 / colorprim=2 / transfer=2 / colormatrix=2 / chromaloc=0 / display-window=0 / max-cll=0,0 / min-luma=0 / max-luma=1023 / log2-max-poc-lsb=8 / vui-timing-info / vui-hrd-info / slices=1 / no-opt-qp-pps / no-opt-ref-list-length-pps / no-multi-pass-opt-rps / scenecut-bias=0.05 / no-opt-cu-delta-qp / no-aq-motion / no-hdr / no-hdr-opt / no-dhdr10-opt / analysis-reuse-level=5 / scale-factor=0 / refine-intra=0 / refine-inter=0 / refine-mv=0 / no-limit-sao / ctu-info=0 / no-lowpass-dct / refine-mv-type=0 / copy-pic=1 Tagged date : UTC 2018-08-31 16:04:57 Audio ID : 2 Format : AAC Format/Info : Advanced Audio Codec Format profile : LC Codec ID : mp4a-40-2 Duration : 23 min 47 s Bit rate mode : Variable Bit rate : 171 kb/s Maximum bit rate : 273 kb/s Channel(s) : 2 channels Channel positions : Front: L R Sampling rate : 48.0 kHz Frame rate : 46.875 FPS (1024 SPF) Compression mode : Lossy Stream size : 29.1 MiB (14%) Encoded date : UTC 2018-08-31 15:17:42 Tagged date : UTC 2018-08-31 16:04:57






文件信息 文件总数:31,文件总大小:5.5GB

 
  • Folder [DDD] Fate/Apocrypha [BDrip 720p HEVC AAC][10bits]
    • 视频文件 Fate/Apocrypha 第22話 「再会と別離」.mp4(310.4MB)
    • 视频文件 Fate/Apocrypha 第09話 「百の焔と百の華」.mp4(296.5MB)
    • 视频文件 Fate/Apocrypha 第04話 「生の代償、死の贖い」.mp4(261.4MB)
    • 视频文件 Fate/Apocrypha 第11話 「永遠の輝き」.mp4(258.2MB)
    • 视频文件 Fate/Apocrypha 第10話 「花と散る」.mp4(256.2MB)
    • 视频文件 Fate/Apocrypha 第21話 「天蠍一射」.mp4(245.6MB)
    • 视频文件 Fate/Apocrypha 第08話 「開戦の狼煙」.mp4(240.3MB)
    • 视频文件 Fate/Apocrypha 第23話 「彼方へと」.mp4(238.6MB)
    • 视频文件 Fate/Apocrypha 第24話 「聖杯戦争」.mp4(237.7MB)
    • 视频文件 Fate/Apocrypha 第03話 「歩き出す運命」.mp4(223.7MB)
    • 视频文件 Fate/Apocrypha 第12話 「聖人の凱旋」.mp4(223.6MB)
    • 视频文件 Fate/Apocrypha 第25話 「Apocrypha」.mp4(217.2MB)
    • 视频文件 Fate/Apocrypha 第02話 「聖女の出立」.mp4(215.9MB)
    • 视频文件 Fate/Apocrypha 第14話 「救世の祈り」.mp4(213.4MB)
    • 视频文件 Fate/Apocrypha 第13話 「最後のマスター」.mp4(211.7MB)
    • 视频文件 Fate/Apocrypha 第01話 「外典:聖杯大戦」.mp4(209.9MB)
    • 视频文件 Fate/Apocrypha 第07話 「自由の在処」.mp4(209.6MB)
    • 视频文件 Fate/Apocrypha 第06話 「叛逆の騎士」.mp4(205.9MB)
    • 视频文件 Fate/Apocrypha 第20話 「空を駆ける」.mp4(204.9MB)
    • 视频文件 Fate/Apocrypha 第18話 「フロム·ヘル」.mp4(202.4MB)
    • 视频文件 Fate/Apocrypha 第17話 「トロイメライ」.mp4(180.7MB)
    • 视频文件 Fate/Apocrypha 第05話 「天の声」.mp4(176.4MB)
    • 视频文件 Fate/Apocrypha 第16話 「ジャック·ザ·リッパー」.mp4(167MB)
    • 视频文件 Fate/Apocrypha 第15話 「道は違えど」.mp4(156.6MB)
    • 视频文件 Fate/Apocrypha 第19話 「終わりの朝」.mp4(156.3MB)
    • 视频文件 Fate/Apocrypha OP1.mp4(30.8MB)
    • 视频文件 Fate/Apocrypha OP2.mp4(26.7MB)
    • 视频文件 Fate/Apocrypha ED1.mp4(22.9MB)
    • 视频文件 Fate/Apocrypha ED2.mp4(13.2MB)
    • 压缩文件 Fate/Apocrypha (sub).rar(231KB)
    • 文本文件 Fate/Apocrypha.txt(2.5KB)
 

下载地址 磁力链接可以使用迅雷等主流软件进行下载

 
 

网友评论(0)

正在加载评论,请稍候......
发表我的看法(评论内容长度最多允许 1000 字)
评论内容
验证码