ACG资源|动漫种子|动漫BT下载 - ACG搜

动漫ACG | 动画下载 | 漫画下载 | galgame下载 | 资源搜索 | 发布资源 | 加入收藏





首页 » 动画 » 新番连载 » [xyx98]Fate/stay night Heaven's Feel I.presage flower / 命运停驻之夜 天之杯 I 预示之花[BDrip][1920x1080][hevc-yuv420p10 flac]

基本信息

共享用户: ACG搜

发布时间: 2018/09/01 22:06:34

更新时间: 无更新

分享情况: 做种 , 下载 , 完成

健 康 度: 0

点击此处下载种子

使用磁力链下载


Tracker信息

Announce:

http://tracker.acgsou.com:2710/announce

Scrape:

http://tracker.acgsou.com:2710/scrape

Announce list:
  • http://www.acgsou.com:2710/announce
  • http://tracker.acgsou.com:2710/announce

资源介绍


mediainfo:

General Unique ID : 244739091430458490709642661549342406966 (0xB81F08D3573E19B8624BD0635F8F3936) Complete name : I:\pt\Fate stay night Heaven's Feel I.presage flower\Fate stay night Heaven's Feel I.presage flower.mkv Format : Matroska Format version : Version 4 / Version 2 File size : 3.14 GiB Duration : 2 h 0 min Overall bit rate mode : Variable Overall bit rate : 3 728 kb/s Encoded date : UTC 2018-05-18 03:36:53 Writing application : mkvmerge v22.0.0 ('At The End Of The World') 64-bit Writing library : libebml v1.3.5 + libmatroska v1.4.8

Video ID : 1 Format : HEVC Format/Info : High Efficiency Video Coding Codec ID : V_MPEGH/ISO/HEVC Duration : 2 h 0 min Bit rate : 2 752 kb/s Width : 1 920 pixels Height : 1 080 pixels Display aspect ratio : 16:9 Frame rate mode : Constant Frame rate : 23.976 (24000/1001) FPS Color space : YUV Chroma subsampling : 4:2:0 Bit depth : 10 bits Bits/(Pixel*Frame) : 0.055 Stream size : 2.32 GiB (74%) Language : Japanese Default : Yes Forced : No

Audio ID : 2 Format : FLAC Format/Info : Free Lossless Audio Codec Codec ID : A_FLAC Duration : 2 h 0 min Bit rate mode : Variable Bit rate : 974 kb/s Channel(s) : 2 channels Channel layout : L R Sampling rate : 48.0 kHz Frame rate : 10.417 FPS (4608 SPF) Bit depth : 24 bits Compression mode : Lossless Stream size : 840 MiB (26%) Writing library : Lavf58.13.100 Language : Japanese Default : Yes Forced : No

Menu 00:00:00.000 : en:chapter01 00:04:19.885 : en:chapter02 00:09:07.839 : en:chapter03 00:12:32.126 : en:chapter04 00:19:47.395 : en:chapter05 00:26:44.102 : en:chapter06 00:29:58.005 : en:chapter07 00:34:50.922 : en:chapter08 00:40:10.992 : en:chapter09 00:47:07.575 : en:chapter10 00:52:19.178 : en:chapter11 00:59:06.543 : en:chapter12 01:07:36.886 : en:chapter13 01:15:41.120 : en:chapter14 01:20:32.202 : en:chapter15 01:24:49.418 : en:chapter16 01:30:56.743 : en:chapter17 01:38:43.417 : en:chapter18 01:44:11.370 : en:chapter19 01:51:28.473 : en:chapter20 01:53:39.312 : en:chapter21 01:59:21.154 : en:chapter22









文件信息 文件总数:2,文件总大小:5.0GB

 
  • Folder Fate stay night Heaven's Feel I.presage flower
    • Unknown Fate stay night Heaven's Feel I.presage flower.mka(1.9GB)
    • 视频文件 Fate stay night Heaven's Feel I.presage flower.mkv(3.1GB)
 

下载地址 磁力链接可以使用迅雷等主流软件进行下载

 
 

网友评论(0)

正在加载评论,请稍候......
发表我的看法(评论内容长度最多允许 1000 字)
评论内容
验证码