ACG资源|动漫种子|动漫BT下载 - ACG搜

动漫ACG | 动画下载 | 漫画下载 | galgame下载 | 资源搜索 | 发布资源 | 加入收藏






首页 » 动画 » 新番连载 » 【搬运】名侦探柯南:绀青之拳 普通话版+日语版

基本信息

共享用户: ACG搜

发布时间: 2019/10/30 17:42:34

更新时间: 无更新

分享情况: 做种 , 下载 , 完成

健 康 度: 0

点击此处下载种子

使用磁力链下载



Tracker信息

Announce:

http://tracker.acgsou.com:2710/announce

Scrape:

http://tracker.acgsou.com:2710/scrape

Announce list:
  • http://www.acgsou.com:2710/announce
  • http://tracker.acgsou.com:2710/announce

资源介绍

来源:腾讯视频 视频属性如下: General Complete name : 名侦探柯南:绀青之拳 普通话版.mp4 Format : MPEG-4 Format profile : Base Media Codec ID : isom (isom/iso2/avc1/mp41) File size : 1.54 GiB Duration : 1 h 49 min Overall bit rate : 2 015 kb/s Writing application : Lavf58.12.100 Video ID : 1 Format : AVC Format/Info : Advanced Video Codec Format profile : [email protected] Format settings : CABAC / 4 Ref Frames Format settings, CABAC : Yes Format settings, Reference fra : 4 frames Codec ID : avc1 Codec ID/Info : Advanced Video Coding Duration : 1 h 49 min Bit rate : 1 912 kb/s Width : 1 920 pixels Height : 1 080 pixels Display aspect ratio : 16:9 Frame rate mode : Variable Frame rate : 24.000 FPS Minimum frame rate : 23.994 FPS Maximum frame rate : 24.006 FPS Color space : YUV Chroma subsampling : 4:2:0 Bit depth : 8 bits Scan type : Progressive Bits/(Pixel*Frame) : 0.038 Stream size : 1.46 GiB (95%) Color range : Limited Color primaries : BT.709 Transfer characteristics : BT.709 Matrix coefficients : BT.709 Codec configuration box : avcC Audio ID : 2 Format : AAC LC Format/Info : Advanced Audio Codec Low Complexity Codec ID : mp4a-40-2 Duration : 1 h 49 min Bit rate mode : Constant Bit rate : 96.0 kb/s Channel(s) : 2 channels Channel layout : L R Sampling rate : 48.0 kHz Frame rate : 46.875 FPS (1024 SPF) Compression mode : Lossy Stream size : 74.9 MiB (5%) Default : Yes Alternate group : 1 General Complete name : 名侦探柯南:绀青之拳 日语版.mp4 Format : MPEG-4 Format profile : Base Media Codec ID : isom (isom/iso2/avc1/mp41) File size : 1.60 GiB Duration : 1 h 49 min Overall bit rate mode : Variable Overall bit rate : 2 094 kb/s Writing application : Lavf58.12.100 Video ID : 1 Format : AVC Format/Info : Advanced Video Codec Format profile : [email protected] Format settings : CABAC / 4 Ref Frames Format settings, CABAC : Yes Format settings, Reference fra : 4 frames Codec ID : avc1 Codec ID/Info : Advanced Video Coding Duration : 1 h 49 min Bit rate : 1 991 kb/s Width : 1 920 pixels Height : 1 080 pixels Display aspect ratio : 16:9 Frame rate mode : Variable Frame rate : 24.000 FPS Minimum frame rate : 23.994 FPS Maximum frame rate : 24.006 FPS Color space : YUV Chroma subsampling : 4:2:0 Bit depth : 8 bits Scan type : Progressive Bits/(Pixel*Frame) : 0.040 Stream size : 1.52 GiB (95%) Color range : Limited Color primaries : BT.709 Transfer characteristics : BT.709 Matrix coefficients : BT.709 Codec configuration box : avcC Audio ID : 2 Format : AAC LC Format/Info : Advanced Audio Codec Low Complexity Codec ID : mp4a-40-2 Duration : 1 h 49 min Bit rate mode : Variable Bit rate : 96.0 kb/s Maximum bit rate : 97.5 kb/s Channel(s) : 2 channels Channel layout : L R Sampling rate : 48.0 kHz Frame rate : 46.875 FPS (1024 SPF) Compression mode : Lossy Stream size : 74.9 MiB (5%) Default : Yes Alternate group : 1






文件信息 文件总数:2,文件总大小:3.1GB

 
  • Folder 名侦探柯南:绀青之拳
    • 视频文件 名侦探柯南:绀青之拳 日语版.mp4(1.6GB)
    • 视频文件 名侦探柯南:绀青之拳 普通话版.mp4(1.5GB)
 

下载地址 磁力链接可以使用迅雷等主流软件进行下载

 
 

网友评论(0)

正在加载评论,请稍候......
发表我的看法(评论内容长度最多允许 1000 字)
评论内容
验证码